It is currently Sat Jan 20, 2018 11:18 pm Advanced search

uploadGIG.com Premium
Download Fortune | DDLPal Downloads | Crack Download | Download Serial | Warez Download | Warez Download | Download Serial | Download Warez | WarezKeeper | Download Serial Crack | Download File Crack | Full Downloads

Shob Bhooturey (2017) Bengali - 1080p - Untouched - WEB-DL -

Bangla Music, Bangla Natoks, Movies, Bangla Teles & Videos, Bangla music artists and Bands, Bangla song lyric.. etc.

Shob Bhooturey (2017) Bengali - 1080p - Untouched - WEB-DL -

Postby wroser » Fri Dec 29, 2017 3:51 am

Image





Code: Select all
Format                                   : Matroska
Format version                           : Version 4 / Version 2
File size                                : 3.35 GiB
Duration                                 : 1 h 48 min
Overall bit rate                         : 4 432 kb/s
Movie name                               : Shob Bhooturey 2017- [email protected] @ Hon3y


Video
ID                                       : 1
Format                                   : AVC
Format/Info                              : Advanced Video Codec
Format profile                           : [email protected]
Format settings                          : CABAC / 1 Ref Frames
Format settings, CABAC                   : Yes
Format settings, RefFrames               : 1 frame
Format settings, GOP                     : M=1, N=25
Codec ID                                 : V_MPEG4/ISO/AVC
Duration                                 : 1 h 48 min
Bit rate mode                            : Constant
Bit rate                                 : 4 304 kb/s
Nominal bit rate                         : 6 000 kb/s
Width                                    : 1 920 pixels
Height                                   : 1 080 pixels
Display aspect ratio                     : 16:9
Frame rate mode                          : Variable
Frame rate                               : 24.954 FPS
Original frame rate                      : 25.000 FPS
Color space                              : YUV
Chroma subsampling                       : 4:2:0
Bit depth                                : 8 bits
Scan type                                : Progressive
Bits/(Pixel*Frame)                       : 0.083
Stream size                              : 3.26 GiB (97%)
Language                                 : Bengali
Default                                  : Yes
Forced                                   : No

Audio
ID                                       : 2
Format                                   : AAC
Format/Info                              : Advanced Audio Codec
Format profile                           : LC
Codec ID                                 : A_AAC-2
Duration                                 : 1 h 48 min
Bit rate                                 : 125 kb/s
Channel(s)                               : 2 channels
Channel positions                        : Front: L R
Sampling rate                            : 48.0 kHz
Frame rate                               : 46.875 FPS (1024 SPF)
Compression mode                         : Lossy
Delay relative to video                  : 9 ms
Stream size                              : 96.7 MiB (3%)
Language                                 : Bengali
Default                                  : Yes
Forced                                   : No

Text
ID                                       : 3
Format                                   : UTF-8
Codec ID                                 : S_TEXT/UTF8
Codec ID/Info                            : UTF-8 Plain Text
Duration                                 : 1 h 47 min
Bit rate                                 : 59 b/s
Count of elements                        : 1471
Stream size                              : 46.9 KiB (0%)
Language                                 : English
Default                                  : Yes
Forced                                   : No



ImageImageImageImageImageImageImage


SINGLE DIRECT FAST LINKS

Code: Select all
http://www.heroupload.com/903f073f4917e78b/Shob.Bhooturey.2017.Bengali.1080p.Untouched.WEB-DL.x264.AAC.ESub-HHD.mkv


1GB LINKS

Code: Select all
http://www.heroupload.com/41993462da15bc6a/Shob.Bhooturey.2017.Bengali.1080p.Untouched.WEB-DL.x264.AAC.ESub-HHD.part1.rar
http://www.heroupload.com/7ac8795ab0b4a5f0/Shob.Bhooturey.2017.Bengali.1080p.Untouched.WEB-DL.x264.AAC.ESub-HHD.part2.rar
http://www.heroupload.com/eb8a5dce2d47f64c/Shob.Bhooturey.2017.Bengali.1080p.Untouched.WEB-DL.x264.AAC.ESub-HHD.part3.rar
http://www.heroupload.com/0342ba465e5d135c/Shob.Bhooturey.2017.Bengali.1080p.Untouched.WEB-DL.x264.AAC.ESub-HHD.part4.rar
wroser
Warez Senior
Warez Senior
 
Posts: 1144
Joined: Sun Jun 03, 2012 7:28 pm

Return to Bangla Entertainment

Who is online

Users browsing this forum: No registered users and 1 guest